电驴资源 >电影 >其他
分类列表

易感 Why Stop Now 2012 HDRIP

易感  Why Stop Now 2012 HDRIP
类别:电影-其他
状态:普通资源
发布:2012-07-07 13:41:04
更新:2012-07-07 13:41:04
更多
电驴资源
用户共享的电驴资源列表
 Why Stop Now 2012 HDRIP XVID HS【QVOCD.COM】.avi1347084288
全选 1.25 GB
电驴资源简介





◎译  名 易感/为什么现在停止
◎片  名 Why Stop Now
◎年  代 2012
◎国  家 美国
◎类  别 喜剧
◎语  言 英语
◎字  幕 N/A
◎IMDB评分 3.7/10 (69 votes)
◎IMDB链接 http://www.imdb.com/title/tt1853643/
◎文件格式 XviD + MP3
◎视频尺寸 640 x 264
◎文件大小 1.25 GB
◎片  长 87 Mins
◎导  演 
菲尔·道林 Phil Dorling
罗恩·内斯万尼尔 Ron Nyswaner
◎主  演 
杰西·艾森伯格 Jesse Eisenberg ....Eli
梅丽莎·里奥 Melissa Leo ....Penny
崔西·摩根 Tracy Morgan ....Sprinkles
斯蒂芬妮·玛奇 Stephanie March ....Trish
Sarah Ramos ....Chloe
Isiah Whitlock Jr. ....Black
Jayce Bartok ....Nurse Mike
Tanya Wright ....Lisa
尼尔·哈夫 Neal Huff ....Dave Epstein
Emma Rayne Lyle ....Nicole
Harper Dill ....Lucy
Kai Chapman ....Pat
Kevin Cannon ....Principle Rehab Junkie
Wayne Pyle ....Construction Worker 1
Nicole Signore ....Pedestrian
Nicole Quinn ....Receptionist
Scott Danni ....Reenactor
Logan Strand ....Steven
Dean F. Barnes ....Big Reenactor
Joseph Basile ....Rehab Patient (uncredited)
Duncan Putney ....Chloe's Dad (uncredited)
Cameron Scott Nadler ....Re-enactor (uncredited)






影片介绍

  杰西·艾森伯格饰演一个十分有希望进入大名鼎鼎的茱莉亚音乐学院的年轻人,而梅丽莎·里奥饰演则饰演艾森伯格的“瘾君子”老妈,崔西·摩根饰演的正是经常给毒妈供货的毒贩子。就在儿子面试茱莉亚学院的当天,嗨翻了的毒妈和毒贩子斗争,以期能够恢复健康,因为自己没有医疗保险。






代码http://www.imdb.com/title/tt1853643/

Source---OurOwn


Format                         : AVI
Format/Info                     : Audio Video Interleave
Format profile                   : OpenDML
File size                       : 1.25 GiB
Duration                       : 1h 27mn
Overall bit rate                 : 2 046 Kbps
Writing application               : Lavf52.103.0

Video
ID                           : 1
Format                         : MPEG-4 Visual
Format profile                   : Simple@L1
Format settings, BVOP               : No
Format settings, QPel               : No
Format settings, GMC               : No warppoints
Format settings, Matrix             : Default (H.263)
Codec ID                       : FMP4
Duration                       : 1h 27mn
Bit rate                       : 1 903 Kbps
Width                         : 640 pixels
Height                         : 264 pixels
Display aspect ratio               : 2.40:1
Frame rate                     : 23.976 fps
Color space                     : YUV
Chroma subsampling                 : 4:2:0
Bit depth                       : 8 bits
Scan type                       : Progressive
Compression mode                 : Lossy
Bits/(Pixel*Frame)                 : 0.470
Stream size                     : 1.17 GiB (93%)
Writing library                   : Lavc52.116.0

Audio
ID                           : 0
Format                         : MPEG Audio
Format version                   : Version 1
Format profile                   : Layer 3
Mode                         : Joint stereo
Mode extension                   : MS Stereo
Codec ID                       : 55
Codec ID/Hint                   : MP3
Duration                       : 1h 27mn
Bit rate mode                   : Constant
Bit rate                       : 128 Kbps
Channel(s)                     : 2 channels
Sampling rate                   : 48.0 KHz
Compression mode                 : Lossy
Stream size                     : 80.4 MiB (6%)
Alignment                       : Aligned on interleaves
Interleave, duration               : 42 ms (1.00 video frame)
Writing library                   : LAME3.98.4










京ICP备14000992号-3 版权声明 如果侵犯了你的权益,请通知我们,我们会及时删除侵权内容,谢谢合作! 联系信箱:ed2kers@gmail.com